<?xml version="1.0" standalone="no"?>
<!DOCTYPE svg PUBLIC "-//W3C//DTD SVG 1.1//EN" "http://www.w3.org/Graphics/SVG/1.1/DTD/svg11.dtd" >
<svg xmlns="http://www.w3.org/2000/svg">
<metadata></metadata>
<defs>
<font id="bucci_bit_14regular" horiz-adv-x="640" >
<font-face units-per-em="1024" ascent="819" descent="-205" />
<missing-glyph horiz-adv-x="512" />
<glyph horiz-adv-x="0" />
<glyph horiz-adv-x="256" />
<glyph unicode=" "  horiz-adv-x="512" />
<glyph unicode="&#x09;" horiz-adv-x="512" />
<glyph unicode="&#xa0;" horiz-adv-x="512" />
<glyph unicode="!" horiz-adv-x="256" d="M0 0v128h128v-128h-128zM0 256v640h128v-640h-128z" />
<glyph unicode="&#x22;" horiz-adv-x="512" d="M0 640v256h128v-256h-128zM256 640v256h128v-256h-128z" />
<glyph unicode="#" d="M320 320v256h-128v-256h128zM64 0v192h-64v128h64v256h-64v128h64v192h128v-192h128v192h128v-192h64v-128h-64v-256h64v-128h-64v-192h-128v192h-128v-192h-128z" />
<glyph unicode="$" d="M384 256v128h-64v-128h64zM192 512v128h-64v-128h64zM192 0v128h-192v128h192v128h-128v64h-64v256h64v64h128v128h128v-128h192v-128h-192v-128h128v-64h64v-256h-64v-64h-128v-128h-128z" />
<glyph unicode="%" d="M320 0v64h-64v192h64v64h128v-64h64v-192h-64v-64h-128zM64 576v64h-64v192h64v64h128v-64h64v-192h-64v-64h-128zM0 0v320h64v64h64v64h64v64h64v64h64v64h64v256h128v-320h-64v-64h-64v-64h-64v-64h-64v-64h-64v-64h-64v-256h-128z" />
<glyph unicode="&#x26;" d="M256 256v128h-128v-128h128zM256 512v128h-128v-64h64v-64h64zM256 0v128h-192v64h-64v256h64v64h-64v192h64v64h192v128h128v-128h128v-128h-128v-128h128v-128h-128v-128h128v-128h-128v-128h-128z" />
<glyph unicode="'" horiz-adv-x="256" d="M0 640v256h128v-256h-128z" />
<glyph unicode="(" horiz-adv-x="384" d="M128 0v64h-64v64h-64v640h64v64h64v64h128v-128h-64v-64h-64v-512h64v-64h64v-128h-128z" />
<glyph unicode=")" horiz-adv-x="384" d="M0 0v128h64v64h64v512h-64v64h-64v128h128v-64h64v-64h64v-640h-64v-64h-64v-64h-128z" />
<glyph unicode="*" horiz-adv-x="512" d="M128 512v128h-128v128h128v128h128v-128h128v-128h-128v-128h-128z" />
<glyph unicode="+" d="M192 192v192h-192v128h192v192h128v-192h192v-128h-192v-192h-128z" />
<glyph unicode="," horiz-adv-x="256" d="M0 -128v64h64v-64h-64zM64 -64v64h-64v128h128v-192h-64z" />
<glyph unicode="-" d="M0 384v128h512v-128h-512z" />
<glyph unicode="." horiz-adv-x="256" d="M0 0v128h128v-128h-128z" />
<glyph unicode="/" d="M0 0v320h64v64h64v64h64v64h64v64h64v64h64v256h128v-320h-64v-64h-64v-64h-64v-64h-64v-64h-64v-64h-64v-256h-128z" />
<glyph unicode="0" d="M384 128v128h-64v64h-64v64h-64v64h-64v-320h256zM384 448v320h-256v-128h64v-64h64v-64h64v-64h64zM64 0v64h-64v768h64v64h384v-64h64v-768h-64v-64h-384z" />
<glyph unicode="1" horiz-adv-x="512" d="M0 0v128h128v512h-128v128h64v64h64v64h128v-768h128v-128h-384z" />
<glyph unicode="2" d="M0 0v384h64v64h64v64h256v256h-256v-128h-128v192h64v64h384v-64h64v-384h-64v-64h-256v-64h-64v-192h384v-128h-512z" />
<glyph unicode="3" d="M64 0v64h-64v192h128v-128h256v256h-256v128h192v64h64v192h-256v-128h-128v192h64v64h384v-64h64v-320h-64v-64h64v-384h-64v-64h-384z" />
<glyph unicode="4" d="M384 0v384h-384v384h128v-256h256v384h128v-896h-128z" />
<glyph unicode="5" d="M64 0v64h-64v192h128v-128h256v256h-384v512h512v-128h-384v-256h320v-64h64v-384h-64v-64h-384z" />
<glyph unicode="6" d="M384 128v256h-256v-256h256zM64 0v64h-64v768h64v64h448v-128h-384v-256h320v-64h64v-384h-64v-64h-384z" />
<glyph unicode="7" d="M192 0v512h64v64h64v64h64v128h-384v128h512v-320h-64v-64h-64v-64h-64v-448h-128z" />
<glyph unicode="8" d="M384 128v256h-256v-256h256zM320 512v64h64v192h-256v-192h64v-64h128zM64 0v64h-64v384h64v64h-64v320h64v64h384v-64h64v-320h-64v-64h64v-384h-64v-64h-384z" />
<glyph unicode="9" d="M384 512v256h-256v-256h256zM0 0v128h384v256h-320v64h-64v384h64v64h384v-64h64v-768h-64v-64h-448z" />
<glyph unicode=":" horiz-adv-x="256" d="M0 0v128h128v-128h-128zM0 512v128h128v-128h-128z" />
<glyph unicode=";" horiz-adv-x="256" d="M0 -128v64h64v-64h-64zM64 -64v64h-64v128h128v-192h-64zM0 512v128h128v-128h-128z" />
<glyph unicode="&#x3c;" d="M384 0v64h-64v64h-64v64h-64v64h-64v64h-64v64h-64v128h64v64h64v64h64v64h64v64h64v64h64v64h128v-128h-64v-64h-64v-64h-64v-64h-64v-64h-64v-128h64v-64h64v-64h64v-64h64v-64h64v-128h-128z" />
<glyph unicode="=" d="M0 256v128h512v-128h-512zM0 512v128h512v-128h-512z" />
<glyph unicode="&#x3e;" d="M0 0v128h64v64h64v64h64v64h64v64h64v128h-64v64h-64v64h-64v64h-64v64h-64v128h128v-64h64v-64h64v-64h64v-64h64v-64h64v-64h64v-128h-64v-64h-64v-64h-64v-64h-64v-64h-64v-64h-64v-64h-128z" />
<glyph unicode="?" d="M192 0v128h128v-128h-128zM192 256v192h64v64h128v256h-256v-128h-128v192h64v64h384v-64h64v-384h-64v-64h-128v-128h-128z" />
<glyph unicode="@" horiz-adv-x="768" d="M384 384v128h-64v-128h64zM64 0v64h-64v768h64v64h512v-64h64v-512h-64v-64h-320v64h-64v256h64v64h128v-64h64v-192h64v384h-384v-640h384v-128h-448z" />
<glyph unicode="A" d="M384 512v256h-256v-256h256zM0 0v832h64v64h384v-64h64v-832h-128v384h-256v-384h-128z" />
<glyph unicode="B" d="M384 128v256h-256v-256h256zM320 512v64h64v192h-256v-256h192zM0 0v896h448v-64h64v-320h-64v-64h64v-384h-64v-64h-448z" />
<glyph unicode="C" d="M64 0v64h-64v768h64v64h384v-64h64v-192h-128v128h-256v-640h256v128h128v-192h-64v-64h-384z" />
<glyph unicode="D" d="M384 128v640h-256v-640h256zM0 0v896h448v-64h64v-768h-64v-64h-448z" />
<glyph unicode="E" d="M0 0v896h512v-128h-384v-256h256v-128h-256v-256h384v-128h-512z" />
<glyph unicode="F" d="M0 0v896h512v-128h-384v-256h256v-128h-256v-384h-128z" />
<glyph unicode="G" d="M64 0v64h-64v768h64v64h384v-64h64v-192h-128v128h-256v-640h256v256h-128v128h256v-512h-448z" />
<glyph unicode="H" d="M0 0v896h128v-384h256v384h128v-896h-128v384h-256v-384h-128z" />
<glyph unicode="I" horiz-adv-x="512" d="M0 0v128h128v640h-128v128h384v-128h-128v-640h128v-128h-384z" />
<glyph unicode="J" d="M64 0v64h-64v256h128v-192h256v768h128v-832h-64v-64h-384z" />
<glyph unicode="K" d="M0 0v896h128v-384h128v64h64v64h64v256h128v-320h-64v-64h-64v-64h64v-64h64v-384h-128v320h-64v64h-192v-384h-128z" />
<glyph unicode="L" d="M0 0v896h128v-768h384v-128h-512z" />
<glyph unicode="M" horiz-adv-x="768" d="M0 0v896h128v-64h64v-64h64v-64h128v64h64v64h64v64h128v-896h-128v640h-64v-64h-64v-64h-128v64h-64v64h-64v-640h-128z" />
<glyph unicode="N" d="M0 0v896h128v-64h64v-64h64v-64h64v-64h64v256h128v-896h-128v448h-64v64h-64v64h-64v64h-64v-640h-128z" />
<glyph unicode="O" d="M384 128v640h-256v-640h256zM64 0v64h-64v768h64v64h384v-64h64v-768h-64v-64h-384z" />
<glyph unicode="P" d="M384 512v256h-256v-256h256zM0 0v896h448v-64h64v-384h-64v-64h-320v-384h-128z" />
<glyph unicode="Q" d="M256 128v128h128v512h-256v-640h128zM64 0v64h-64v768h64v64h384v-64h64v-832h-448z" />
<glyph unicode="R" d="M320 512v64h64v192h-256v-256h192zM0 0v896h448v-64h64v-320h-64v-64h64v-448h-128v384h-256v-384h-128z" />
<glyph unicode="S" d="M0 0v128h384v256h-320v64h-64v384h64v64h448v-128h-384v-256h320v-64h64v-384h-64v-64h-448z" />
<glyph unicode="T" d="M192 0v768h-192v128h512v-128h-192v-768h-128z" />
<glyph unicode="U" d="M64 0v64h-64v832h128v-768h256v768h128v-832h-64v-64h-384z" />
<glyph unicode="V" d="M192 0v64h-64v64h-64v64h-64v704h128v-640h64v-64h128v64h64v640h128v-704h-64v-64h-64v-64h-64v-64h-128z" />
<glyph unicode="W" horiz-adv-x="768" d="M64 0v64h-64v832h128v-768h128v512h128v-512h128v768h128v-832h-64v-64h-512z" />
<glyph unicode="X" d="M0 0v320h64v64h64v128h-64v64h-64v320h128v-256h64v-64h128v64h64v256h128v-320h-64v-64h-64v-128h64v-64h64v-320h-128v256h-64v64h-128v-64h-64v-256h-128z" />
<glyph unicode="Y" d="M192 0v384h-64v64h-64v64h-64v384h128v-320h64v-64h128v64h64v320h128v-384h-64v-64h-64v-64h-64v-384h-128z" />
<glyph unicode="Z" d="M0 0v320h64v64h64v64h64v64h64v64h64v64h64v128h-384v128h512v-320h-64v-64h-64v-64h-64v-64h-64v-64h-64v-64h-64v-128h384v-128h-512z" />
<glyph unicode="[" horiz-adv-x="384" d="M0 0v896h256v-128h-128v-640h128v-128h-256z" />
<glyph unicode="\" d="M384 0v256h-64v64h-64v64h-64v64h-64v64h-64v64h-64v320h128v-256h64v-64h64v-64h64v-64h64v-64h64v-64h64v-320h-128z" />
<glyph unicode="]" horiz-adv-x="384" d="M0 0v128h128v640h-128v128h256v-896h-256z" />
<glyph unicode="^" d="M0 576v128h64v64h64v64h64v64h128v-64h64v-64h64v-64h64v-128h-128v64h-64v64h-128v-64h-64v-64h-128z" />
<glyph unicode="_" d="M0 0v128h512v-128h-512z" />
<glyph unicode="`" horiz-adv-x="384" d="M128 704v64h-64v64h-64v64h128v-64h64v-64h64v-64h-128z" />
<glyph unicode="a" d="M384 128v128h-256v-128h256zM64 0v64h-64v256h64v64h320v128h-384v128h448v-64h64v-576h-448z" />
<glyph unicode="b" d="M384 128v384h-256v-384h256zM0 0v896h128v-256h320v-64h64v-512h-64v-64h-448z" />
<glyph unicode="c" d="M64 0v64h-64v512h64v64h448v-128h-384v-384h384v-128h-448z" />
<glyph unicode="d" d="M384 128v384h-256v-384h256zM64 0v64h-64v512h64v64h320v256h128v-896h-448z" />
<glyph unicode="e" d="M384 384v128h-256v-128h256zM64 0v64h-64v512h64v64h384v-64h64v-256h-64v-64h-320v-128h384v-128h-448z" />
<glyph unicode="f" horiz-adv-x="512" d="M128 0v512h-128v128h128v192h64v64h192v-128h-128v-128h128v-128h-128v-512h-128z" />
<glyph unicode="g" d="M384 128v384h-256v-384h256zM0 -256v128h384v128h-320v64h-64v512h64v64h448v-832h-64v-64h-448z" />
<glyph unicode="h" d="M0 0v896h128v-256h320v-64h64v-576h-128v512h-256v-512h-128z" />
<glyph unicode="i" horiz-adv-x="256" d="M0 0v640h128v-640h-128zM0 768v128h128v-128h-128z" />
<glyph unicode="j" horiz-adv-x="512" d="M64 -256v64h-64v192h128v-128h128v768h128v-832h-64v-64h-256zM256 768v128h128v-128h-128z" />
<glyph unicode="k" d="M0 0v896h128v-512h64v64h64v64h64v64h64v64h128v-128h-64v-64h-64v-64h-64v-128h64v-64h64v-64h64v-128h-128v64h-64v64h-64v64h-64v64h-64v-256h-128z" />
<glyph unicode="l" horiz-adv-x="256" d="M0 0v896h128v-896h-128z" />
<glyph unicode="m" horiz-adv-x="768" d="M0 0v640h576v-64h64v-576h-128v512h-128v-512h-128v512h-128v-512h-128z" />
<glyph unicode="n" d="M0 0v640h448v-64h64v-576h-128v512h-256v-512h-128z" />
<glyph unicode="o" d="M384 128v384h-256v-384h256zM64 0v64h-64v512h64v64h384v-64h64v-512h-64v-64h-384z" />
<glyph unicode="p" d="M384 128v384h-256v-384h256zM0 -256v896h448v-64h64v-512h-64v-64h-320v-256h-128z" />
<glyph unicode="q" d="M384 128v384h-256v-384h256zM384 -256v256h-320v64h-64v512h64v64h448v-896h-128z" />
<glyph unicode="r" d="M0 0v640h448v-64h64v-128h-128v64h-256v-512h-128z" />
<glyph unicode="s" d="M0 0v128h384v128h-320v64h-64v256h64v64h448v-128h-384v-128h320v-64h64v-256h-64v-64h-448z" />
<glyph unicode="t" horiz-adv-x="512" d="M192 0v64h-64v448h-128v128h128v256h128v-256h128v-128h-128v-384h128v-128h-192z" />
<glyph unicode="u" d="M64 0v64h-64v576h128v-512h256v512h128v-640h-448z" />
<glyph unicode="v" d="M192 0v64h-64v64h-64v64h-64v448h128v-384h64v-64h128v64h64v384h128v-448h-64v-64h-64v-64h-64v-64h-128z" />
<glyph unicode="w" horiz-adv-x="768" d="M64 0v64h-64v576h128v-512h128v512h128v-512h128v512h128v-576h-64v-64h-512z" />
<glyph unicode="x" d="M0 0v192h64v64h64v128h-64v64h-64v192h128v-128h64v-64h128v64h64v128h128v-192h-64v-64h-64v-128h64v-64h64v-192h-128v128h-64v64h-128v-64h-64v-128h-128z" />
<glyph unicode="y" d="M0 -256v128h384v128h-320v64h-64v576h128v-512h256v512h128v-832h-64v-64h-448z" />
<glyph unicode="z" d="M0 0v192h64v64h64v64h64v64h64v64h64v64h-320v128h512v-192h-64v-64h-64v-64h-64v-64h-64v-64h-64v-64h320v-128h-512z" />
<glyph unicode="{" horiz-adv-x="384" d="M128 0v64h-64v320h-64v128h64v320h64v64h128v-128h-64v-640h64v-128h-128z" />
<glyph unicode="|" horiz-adv-x="256" d="M0 0v896h128v-896h-128z" />
<glyph unicode="}" horiz-adv-x="384" d="M0 0v128h64v640h-64v128h128v-64h64v-320h64v-128h-64v-320h-64v-64h-128z" />
<glyph unicode="~" d="M256 320v64h-64v64h-64v-64h-128v128h64v64h192v-64h64v-64h64v64h128v-128h-64v-64h-192z" />
<glyph unicode="&#x2018;" horiz-adv-x="256" d="M0 640v192h64v-64h64v-128h-128zM64 832v64h64v-64h-64z" />
<glyph unicode="&#x2019;" horiz-adv-x="256" d="M0 640v64h64v-64h-64zM64 704v64h-64v128h128v-192h-64z" />
<glyph unicode="&#x201c;" horiz-adv-x="512" d="M0 640v192h64v-64h64v-128h-128zM256 640v192h64v-64h64v-128h-128zM64 832v64h64v-64h-64zM320 832v64h64v-64h-64z" />
<glyph unicode="&#x201d;" horiz-adv-x="512" d="M0 640v64h64v-64h-64zM256 640v64h64v-64h-64zM64 704v64h-64v128h128v-192h-64zM320 704v64h-64v128h128v-192h-64z" />
<glyph unicode="&#x25fc;" d="M0 640h640v-640h-640v640z" />
</font>
</defs>
</svg>
