<?xml version="1.0" standalone="no"?>
<!DOCTYPE svg PUBLIC "-//W3C//DTD SVG 1.1//EN" "http://www.w3.org/Graphics/SVG/1.1/DTD/svg11.dtd" >
<svg>
<metadata>
Created by FontForge 20120731 at Sat Jun  8 21:48:22 2013
 By Jenkins
Copyright dlbucci 2012
</metadata>
<defs>
<font id="Bucci-Bit-Alt" horiz-adv-x="768" >
  <font-face 
    font-family="Bucci Bit Alt"
    font-weight="400"
    font-stretch="normal"
    units-per-em="1024"
    panose-1="0 0 4 0 0 0 0 0 0 0"
    ascent="819"
    descent="-205"
    x-height="640"
    cap-height="1024"
    bbox="0 -256 896 1024"
    underline-thickness="51"
    underline-position="127"
    unicode-range="U+0020-201D"
  />
<missing-glyph horiz-adv-x="0" 
d="M448 127v142h-143v-142h143zM590 293v143h-285v-143h285zM448 459v143h-143v-143h143zM590 626v141h-142q-60 0 -101 -41q-42 -42 -42 -100h285zM0 0v896h896v-896h-896z" />
    <glyph glyph-name=".notdef" horiz-adv-x="0" 
d="M448 127v142h-143v-142h143zM590 293v143h-285v-143h285zM448 459v143h-143v-143h143zM590 626v141h-142q-60 0 -101 -41q-42 -42 -42 -100h285zM0 0v896h896v-896h-896z" />
    <glyph glyph-name="glyph1" horiz-adv-x="0" 
 />
    <glyph glyph-name="glyph2" horiz-adv-x="256" 
 />
    <glyph glyph-name="space" unicode=" " 
 />
    <glyph glyph-name="exclam" unicode="!" 
d="M256 0v128h128v-128h-128zM256 256v768h128v-768h-128z" />
    <glyph glyph-name="quotedbl" unicode="&#x22;" 
d="M128 640v384h128v-384h-128zM384 640v384h128v-384h-128z" />
    <glyph glyph-name="numbersign" unicode="#" 
d="M384 256v384h-128v-384h128zM128 0v128h-128v128h128v384h-128v128h128v128h128v-128h128v128h128v-128h128v-128h-128v-384h128v-128h-128v-128h-128v128h-128v-128h-128z" />
    <glyph glyph-name="dollar" unicode="$" 
d="M512 256v128h128v-128h-128zM0 512v128h128v-128h-128zM256 0v128h-256v128h256v128h-128v128h128v128h-128v128h128v128h128v-128h256v-128h-256v-128h128v-128h-128v-128h128v-128h-128v-128h-128z" />
    <glyph glyph-name="percent" unicode="%" 
d="M0 0v256h128v-256h-128zM384 0v256h256v-256h-256zM128 256v128h128v-128h-128zM256 384v128h128v-128h-128zM384 512v128h128v-128h-128zM0 640v256h256v-256h-256zM512 640v256h128v-256h-128z" />
    <glyph glyph-name="ampersand" unicode="&#x26;" 
d="M512 256v128h128v-128h-128zM512 512v128h128v-128h-128zM256 0v128h-256v128h256v128h-256v128h256v128h-256v128h256v128h128v-128h128v-128h-128v-128h128v-128h-128v-128h128v-128h-128v-128h-128z" />
    <glyph glyph-name="quotesingle" unicode="'" 
d="M256 640v384h128v-384h-128z" />
    <glyph glyph-name="parenleft" unicode="(" 
d="M384 0v128h128v-128h-128zM256 128v128h128v-128h-128zM128 256v512h128v-512h-128zM256 768v128h128v-128h-128zM384 896v128h128v-128h-128z" />
    <glyph glyph-name="parenright" unicode=")" 
d="M128 0v128h128v-128h-128zM256 128v128h128v-128h-128zM384 256v512h128v-512h-128zM256 768v128h128v-128h-128zM128 896v128h128v-128h-128z" />
    <glyph glyph-name="asterisk" unicode="*" 
d="M256 640v128h-128v128h128v128h128v-128h128v-128h-128v-128h-128z" />
    <glyph glyph-name="plus" unicode="+" 
d="M256 128v256h-256v128h256v256h128v-256h256v-128h-256v-256h-128z" />
    <glyph glyph-name="comma" unicode="," 
d="M256 -128v128h-128v256h256v-384h-128z" />
    <glyph glyph-name="hyphen" unicode="-" 
d="M0 384v128h640v-128h-640z" />
    <glyph glyph-name="period" unicode="." 
d="M128 0v256h256v-256h-256z" />
    <glyph glyph-name="slash" unicode="/" 
d="M0 0v256h128v-256h-128zM128 256v128h128v-128h-128zM256 384v256h128v-256h-128zM384 640v128h128v-128h-128zM512 768v256h128v-256h-128z" />
    <glyph glyph-name="zero" unicode="0" 
d="M128 0v128h384v-128h-384zM256 384v128h128v-128h-128zM0 128v768h128v-512h128v-128h-128v-128h-128zM512 128v384h-128v128h128v256h128v-768h-128zM128 896v128h384v-128h-384z" />
    <glyph glyph-name="one" unicode="1" 
d="M128 0v128h128v640h-128v128h128v128h128v-896h128v-128h-384z" />
    <glyph glyph-name="two" unicode="2" 
d="M0 0v512h128v-384h512v-128h-640zM128 512v128h384v-128h-384zM512 640v256h128v-256h-128zM0 896v128h512v-128h-512z" />
    <glyph glyph-name="three" unicode="3" 
d="M0 0v128h512v-128h-512zM512 128v384h128v-384h-128zM128 512v128h384v-128h-384zM512 640v256h128v-256h-128zM0 896v128h512v-128h-512z" />
    <glyph glyph-name="four" unicode="4" 
d="M512 0v512h-512v384h128v-256h384v384h128v-1024h-128z" />
    <glyph glyph-name="five" unicode="5" 
d="M0 0v128h512v-128h-512zM512 128v384h128v-384h-128zM0 512v512h640v-128h-512v-256h384v-128h-512z" />
    <glyph glyph-name="six" unicode="6" 
d="M128 0v128h384v-128h-384zM512 128v384h128v-384h-128zM0 128v768h128v-256h384v-128h-384v-384h-128zM512 768v128h128v-128h-128zM128 896v128h384v-128h-384z" />
    <glyph glyph-name="seven" unicode="7" 
d="M256 0v384h128v-384h-128zM384 384v256h128v-256h-128zM512 640v256h-512v128h640v-384h-128z" />
    <glyph glyph-name="eight" unicode="8" 
d="M128 0v128h384v-128h-384zM0 128v384h128v-384h-128zM512 128v384h128v-384h-128zM128 512v128h384v-128h-384zM0 640v256h128v-256h-128zM512 640v256h128v-256h-128zM128 896v128h384v-128h-384z" />
    <glyph glyph-name="nine" unicode="9" 
d="M128 0v128h384v-128h-384zM0 128v128h128v-128h-128zM0 640v256h128v-256h-128zM512 128v384h-384v128h384v256h128v-768h-128zM128 896v128h384v-128h-384z" />
    <glyph glyph-name="colon" unicode=":" 
d="M128 128v256h256v-256h-256zM128 512v256h256v-256h-256z" />
    <glyph glyph-name="semicolon" unicode=";" 
d="M256 0v128h-128v256h256v-384h-128zM128 512v256h256v-256h-256z" />
    <glyph glyph-name="less" unicode="&#x3c;" 
d="M384 128v128h256v-128h-256zM128 256v128h256v-128h-256zM0 384v128h128v-128h-128zM128 512v128h256v-128h-256zM384 640v128h256v-128h-256z" />
    <glyph glyph-name="equal" unicode="=" 
d="M0 256v128h640v-128h-640zM0 512v128h640v-128h-640z" />
    <glyph glyph-name="greater" unicode="&#x3e;" 
d="M0 128v128h256v-128h-256zM256 256v128h256v-128h-256zM512 384v128h128v-128h-128zM256 512v128h256v-128h-256zM0 640v128h256v-128h-256z" />
    <glyph glyph-name="question" unicode="?" 
d="M256 0v128h128v-128h-128zM256 256v128h128v-128h-128zM384 384v128h128v-128h-128zM0 640v256h128v-256h-128zM512 512v384h128v-384h-128zM128 896v128h384v-128h-384z" />
    <glyph glyph-name="at" unicode="@" 
d="M128 0v128h384v-128h-384zM0 128v512h128v-512h-128zM512 128v128h-256v256h256v128h128v-512h-128zM128 640v128h384v-128h-384z" />
    <glyph glyph-name="A" unicode="A" 
d="M0 0v896h128v-256h384v256h128v-896h-128v512h-384v-512h-128zM128 896v128h384v-128h-384z" />
    <glyph glyph-name="B" unicode="B" 
d="M512 128v384h128v-384h-128zM512 640v256h128v-256h-128zM0 0v1024h512v-128h-384v-256h384v-128h-384v-384h384v-128h-512z" />
    <glyph glyph-name="C" unicode="C" 
d="M128 0v128h384v-128h-384zM512 128v256h128v-256h-128zM0 128v768h128v-768h-128zM512 640v256h128v-256h-128zM128 896v128h384v-128h-384z" />
    <glyph glyph-name="D" unicode="D" 
d="M512 128v768h128v-768h-128zM0 0v1024h512v-128h-384v-768h384v-128h-512z" />
    <glyph glyph-name="E" unicode="E" 
d="M0 0v1024h640v-128h-512v-256h384v-128h-384v-384h512v-128h-640z" />
    <glyph glyph-name="F" unicode="F" 
d="M0 0v1024h640v-128h-512v-256h384v-128h-384v-512h-128z" />
    <glyph glyph-name="G" unicode="G" 
d="M128 0v128h384v-128h-384zM512 128v384h-256v128h384v-512h-128zM0 128v768h128v-768h-128zM128 896v128h512v-128h-512z" />
    <glyph glyph-name="H" unicode="H" 
d="M0 0v1024h128v-384h384v384h128v-1024h-128v512h-384v-512h-128z" />
    <glyph glyph-name="I" unicode="I" 
d="M0 0v128h256v768h-256v128h640v-128h-256v-768h256v-128h-640z" />
    <glyph glyph-name="J" unicode="J" 
d="M128 0v128h384v-128h-384zM0 128v256h128v-256h-128zM512 128v896h128v-896h-128z" />
    <glyph glyph-name="K" unicode="K" 
d="M512 0v384h128v-384h-128zM384 384v128h128v-128h-128zM384 640v128h128v-128h-128zM0 0v1024h128v-384h256v-128h-256v-512h-128zM512 768v256h128v-256h-128z" />
    <glyph glyph-name="L" unicode="L" 
d="M0 0v1024h128v-896h512v-128h-640z" />
    <glyph glyph-name="M" unicode="M" 
d="M256 0v896h128v-896h-128zM0 0v1024h256v-128h-128v-896h-128zM512 0v896h-128v128h256v-1024h-128z" />
    <glyph glyph-name="N" unicode="N" 
d="M256 640v128h128v-128h-128zM0 0v1024h128v-128h128v-128h-128v-768h-128zM512 0v512h-128v128h128v384h128v-1024h-128z" />
    <glyph glyph-name="O" unicode="O" 
d="M128 0v128h384v-128h-384zM0 128v768h128v-768h-128zM512 128v768h128v-768h-128zM128 896v128h384v-128h-384z" />
    <glyph glyph-name="P" unicode="P" 
d="M512 640v256h128v-256h-128zM0 0v1024h512v-128h-384v-256h384v-128h-384v-512h-128z" />
    <glyph glyph-name="Q" unicode="Q" 
d="M384 -128v128h-256v128h384v-128h128v-128h-256zM0 128v768h128v-768h-128zM512 128v768h128v-768h-128zM128 896v128h384v-128h-384z" />
    <glyph glyph-name="R" unicode="R" 
d="M512 0v512h128v-512h-128zM512 640v256h128v-256h-128zM0 0v1024h512v-128h-384v-256h384v-128h-384v-512h-128z" />
    <glyph glyph-name="S" unicode="S" 
d="M0 0v128h512v-128h-512zM512 128v384h128v-384h-128zM128 512v128h384v-128h-384zM0 640v256h128v-256h-128zM128 896v128h512v-128h-512z" />
    <glyph glyph-name="T" unicode="T" 
d="M256 0v896h-256v128h640v-128h-256v-896h-128z" />
    <glyph glyph-name="U" unicode="U" 
d="M128 0v128h384v-128h-384zM0 128v896h128v-896h-128zM512 128v896h128v-896h-128z" />
    <glyph glyph-name="V" unicode="V" 
d="M256 0v128h128v-128h-128zM128 128v384h128v-384h-128zM384 128v384h128v-384h-128zM0 512v512h128v-512h-128zM512 512v512h128v-512h-128z" />
    <glyph glyph-name="W" unicode="W" 
d="M128 0v128h128v-128h-128zM384 0v128h128v-128h-128zM0 128v896h128v-896h-128zM256 128v896h128v-896h-128zM512 128v896h128v-896h-128z" />
    <glyph glyph-name="X" unicode="X" 
d="M0 0v384h128v-384h-128zM512 0v384h128v-384h-128zM128 384v128h128v-128h-128zM384 384v128h128v-128h-128zM256 512v128h128v-128h-128zM128 640v128h128v-128h-128zM384 640v128h128v-128h-128zM0 768v256h128v-256h-128zM512 768v256h128v-256h-128z" />
    <glyph glyph-name="Y" unicode="Y" 
d="M256 0v640h128v-640h-128zM128 640v128h128v-128h-128zM384 640v128h128v-128h-128zM0 768v256h128v-256h-128zM512 768v256h128v-256h-128z" />
    <glyph glyph-name="Z" unicode="Z" 
d="M0 0v384h128v-256h512v-128h-640zM128 384v128h128v-128h-128zM256 512v128h128v-128h-128zM384 640v128h128v-128h-128zM512 768v128h-512v128h640v-256h-128z" />
    <glyph glyph-name="bracketleft" unicode="[" 
d="M128 0v1024h384v-128h-256v-768h256v-128h-384z" />
    <glyph glyph-name="backslash" unicode="\" 
d="M512 0v256h128v-256h-128zM384 256v128h128v-128h-128zM256 384v256h128v-256h-128zM128 640v128h128v-128h-128zM0 768v256h128v-256h-128z" />
    <glyph glyph-name="bracketright" unicode="]" 
d="M128 0v128h256v768h-256v128h384v-1024h-384z" />
    <glyph glyph-name="asciicircum" unicode="^" 
d="M0 384v256h128v-256h-128zM512 384v256h128v-256h-128zM128 640v256h128v-256h-128zM384 640v256h128v-256h-128zM256 896v128h128v-128h-128z" />
    <glyph glyph-name="underscore" unicode="_" 
d="M0 0v128h640v-128h-640z" />
    <glyph glyph-name="grave" unicode="`" 
d="M384 768v128h128v-128h-128zM128 896v128h256v-128h-256z" />
    <glyph glyph-name="a" unicode="a" 
d="M0 128v128h128v-128h-128zM128 0v128h384v128h-384v128h384v128h128v-512h-512zM0 512v128h512v-128h-512z" />
    <glyph glyph-name="b" unicode="b" 
d="M512 128v384h128v-384h-128zM0 0v896h128v-256h384v-128h-384v-384h384v-128h-512z" />
    <glyph glyph-name="c" unicode="c" 
d="M128 0v128h512v-128h-512zM0 128v384h128v-384h-128zM128 512v128h512v-128h-512z" />
    <glyph glyph-name="d" unicode="d" 
d="M0 128v384h128v-384h-128zM128 0v128h384v384h-384v128h384v256h128v-896h-512z" />
    <glyph glyph-name="e" unicode="e" 
d="M128 0v128h512v-128h-512zM0 128v384h128v-128h384v-128h-384v-128h-128zM512 384v128h128v-128h-128zM128 512v128h384v-128h-384z" />
    <glyph glyph-name="f" unicode="f" 
d="M0 0v768h128v-128h256v-128h-256v-512h-128zM128 768v128h512v-128h-512z" />
    <glyph glyph-name="g" unicode="g" 
d="M0 -256v128h512v-128h-512zM0 128v384h128v-384h-128zM512 -128v128h-384v128h384v384h128v-640h-128zM128 512v128h384v-128h-384z" />
    <glyph glyph-name="h" unicode="h" 
d="M512 0v512h128v-512h-128zM0 0v896h128v-256h384v-128h-384v-512h-128z" />
    <glyph glyph-name="i" unicode="i" 
d="M256 0v640h128v-640h-128zM256 768v128h128v-128h-128z" />
    <glyph glyph-name="j" unicode="j" 
d="M0 -256v128h256v-128h-256zM256 -128v768h128v-768h-128zM256 768v128h128v-128h-128z" />
    <glyph glyph-name="k" unicode="k" 
d="M512 0v128h128v-128h-128zM384 128v128h128v-128h-128zM384 384v128h128v-128h-128zM512 512v128h128v-128h-128zM0 0v896h128v-512h256v-128h-256v-256h-128z" />
    <glyph glyph-name="l" unicode="l" 
d="M256 0v896h128v-896h-128z" />
    <glyph glyph-name="m" unicode="m" 
d="M256 0v512h128v-512h-128zM512 0v512h128v-512h-128zM0 0v640h256v-128h-128v-512h-128zM384 512v128h128v-128h-128z" />
    <glyph glyph-name="n" unicode="n" 
d="M512 0v512h128v-512h-128zM0 0v640h512v-128h-384v-512h-128z" />
    <glyph glyph-name="o" unicode="o" 
d="M128 0v128h384v-128h-384zM0 128v384h128v-384h-128zM512 128v384h128v-384h-128zM128 512v128h384v-128h-384z" />
    <glyph glyph-name="p" unicode="p" 
d="M512 128v384h128v-384h-128zM0 -256v896h512v-128h-384v-384h384v-128h-384v-256h-128z" />
    <glyph glyph-name="q" unicode="q" 
d="M0 128v384h128v-384h-128zM512 -256v256h-384v128h384v384h128v-768h-128zM128 512v128h384v-128h-384z" />
    <glyph glyph-name="r" unicode="r" 
d="M0 0v640h640v-128h-512v-512h-128z" />
    <glyph glyph-name="s" unicode="s" 
d="M0 0v128h512v-128h-512zM512 128v128h128v-128h-128zM128 256v128h384v-128h-384zM0 384v128h128v-128h-128zM128 512v128h512v-128h-512z" />
    <glyph glyph-name="t" unicode="t" 
d="M384 0v128h256v-128h-256zM256 128v384h-256v128h256v256h128v-256h256v-128h-256v-384h-128z" />
    <glyph glyph-name="u" unicode="u" 
d="M128 0v128h384v-128h-384zM0 128v512h128v-512h-128zM512 128v512h128v-512h-128z" />
    <glyph glyph-name="v" unicode="v" 
d="M256 0v128h128v-128h-128zM128 128v128h128v-128h-128zM384 128v128h128v-128h-128zM0 256v384h128v-384h-128zM512 256v384h128v-384h-128z" />
    <glyph glyph-name="w" unicode="w" 
d="M0 128v512h128v-512h-128zM128 0v128h128v512h128v-512h128v-128h-384zM512 128v512h128v-512h-128z" />
    <glyph glyph-name="x" unicode="x" 
d="M0 0v128h128v-128h-128zM512 0v128h128v-128h-128zM128 128v128h128v-128h-128zM384 128v128h128v-128h-128zM256 256v128h128v-128h-128zM128 384v128h128v-128h-128zM384 384v128h128v-128h-128zM0 512v128h128v-128h-128zM512 512v128h128v-128h-128z" />
    <glyph glyph-name="y" unicode="y" 
d="M0 -256v128h512v-128h-512zM0 128v512h128v-512h-128zM512 -128v128h-384v128h384v512h128v-768h-128z" />
    <glyph glyph-name="z" unicode="z" 
d="M0 0v128h128v128h128v-128h384v-128h-640zM256 256v128h128v-128h-128zM384 384v128h-384v128h640v-128h-128v-128h-128z" />
    <glyph glyph-name="braceleft" unicode="{" 
d="M384 0v128h128v-128h-128zM256 128v256h-128v256h128v256h128v-768h-128zM384 896v128h128v-128h-128z" />
    <glyph glyph-name="bar" unicode="|" 
d="M256 0v1024h128v-1024h-128z" />
    <glyph glyph-name="braceright" unicode="}" 
d="M128 0v128h128v-128h-128zM256 128v768h128v-256h128v-256h-128v-256h-128zM128 896v128h128v-128h-128z" />
    <glyph glyph-name="asciitilde" unicode="~" 
d="M384 256v128h128v-128h-128zM0 384v128h128v-128h-128zM256 384v128h128v-128h-128zM512 384v128h128v-128h-128zM128 512v128h128v-128h-128z" />
    <glyph glyph-name="uni007F" 
d="M512 128v768h-384v-768h384zM0 0v1024h640v-1024h-640z" />
    <glyph glyph-name="quoteleft" unicode="&#x2018;" 
d="M384 640v256h128v-256h-128zM512 896v128h128v-128h-128z" />
    <glyph glyph-name="quoteright" unicode="&#x2019;" 
d="M0 640v128h128v-128h-128zM128 768v256h128v-256h-128z" />
    <glyph glyph-name="quotedblleft" unicode="&#x201c;" 
d="M128 640v256h128v-256h-128zM384 640v256h128v-256h-128zM256 896v128h128v-128h-128zM512 896v128h128v-128h-128z" />
    <glyph glyph-name="quotedblright" unicode="&#x201d;" 
d="M0 640v128h128v-128h-128zM256 640v128h128v-128h-128zM128 768v256h128v-256h-128zM384 768v256h128v-256h-128z" />
  </font>
</defs>
</svg>
